<?xml version="1.0" standalone="no"?>
<!DOCTYPE svg PUBLIC "-//W3C//DTD SVG 1.1//EN" "http://www.w3.org/Graphics/SVG/1.1/DTD/svg11.dtd" >
<svg xmlns="http://www.w3.org/2000/svg">
<metadata>
Created by FontForge 20120731 at Tue Nov 10 14:50:00 2015
 By Ads
</metadata>
<defs>
<font id="iconfont" horiz-adv-x="1024" >
  <font-face 
    font-family="iconfont"
    font-weight="500"
    font-stretch="normal"
    units-per-em="1024"
    panose-1="2 0 6 3 0 0 0 0 0 0"
    ascent="812"
    descent="-212"
    x-height="792"
    bbox="10 -212.276 1015 803"
    underline-thickness="50"
    underline-position="-100"
    unicode-range="U+0078-E618"
  />
<missing-glyph horiz-adv-x="374" 
d="M34 0v682h272v-682h-272zM68 34h204v614h-204v-614z" />
    <glyph glyph-name=".notdef" horiz-adv-x="374" 
d="M34 0v682h272v-682h-272zM68 34h204v614h-204v-614z" />
    <glyph glyph-name=".null" horiz-adv-x="0" 
 />
    <glyph glyph-name="nonmarkingreturn" horiz-adv-x="341" 
 />
    <glyph glyph-name="x" unicode="x" horiz-adv-x="1001" 
d="M281 543q-27 -1 -53 -1h-83q-18 0 -36.5 -6t-32.5 -18.5t-23 -32t-9 -45.5v-76h912v41q0 16 -0.5 30t-0.5 18q0 13 -5 29t-17 29.5t-31.5 22.5t-49.5 9h-133v-97h-438v97zM955 310v-52q0 -23 0.5 -52t0.5 -58t-10.5 -47.5t-26 -30t-33 -16t-31.5 -4.5q-14 -1 -29.5 -0.5
t-29.5 0.5h-32l-45 128h-439l-44 -128h-29h-34q-20 0 -45 1q-25 0 -41 9.5t-25.5 23t-13.5 29.5t-4 30v167h911zM163 247q-12 0 -21 -8.5t-9 -21.5t9 -21.5t21 -8.5q13 0 22 8.5t9 21.5t-9 21.5t-22 8.5zM316 123q-8 -26 -14 -48q-5 -19 -10.5 -37t-7.5 -25t-3 -15t1 -14.5
t9.5 -10.5t21.5 -4h37h67h81h80h64h36q23 0 34 12t2 38q-5 13 -9.5 30.5t-9.5 34.5q-5 19 -11 39h-368zM336 498v228q0 11 2.5 23t10 21.5t20.5 15.5t34 6h188q31 0 51.5 -14.5t20.5 -52.5v-227h-327z" />
    <glyph glyph-name="uniE600" unicode="&#xe600;" 
d="M646 339q6 -10 6 -46q0 -9 -0.5 -16t-1.5 -13t-2 -10t-3 -6q-2 -4 -6 -6t-9.5 -3.5t-13.5 -1.5h-44v112h46q22 0 28 -10zM915 470v-354q0 -22 -11 -41t-30 -30t-41 -11h-609q-34 0 -58 24t-24 58v354q0 34 24 58t58 24h609q47 0 71 -41q11 -20 11 -41zM512 375h-31v-67
h-77v67h-31v-164h31v71h77v-71h31v164zM683 307q0 19 -3.5 32.5t-10.5 20.5q-13 15 -48 15h-80v-164h81q39 0 50 17.5t11 78.5z" />
    <glyph glyph-name="uniE601" unicode="&#xe601;" 
d="M830 -42q-11 -9 -27 -9q-19 0 -33.5 14.5t-14.5 33.5q0 22 17 36q1 1 2 1.5t2 1.5l1 1q27 19 50.5 44.5t41 55t27.5 63.5t10 70q0 73 -37.5 133.5t-92.5 99.5q-21 15 -21 39q0 20 14.5 34t33.5 14q17 0 29 -10q37 -26 68 -59.5t53.5 -73t35 -84.5t12.5 -93
q0 -49 -12.5 -94t-35.5 -85t-54 -73.5t-69 -59.5zM776 397q20 -28 32.5 -57t12.5 -70q0 -39 -13 -70.5t-32 -56.5q-8 -11 -17 -19t-22 -8q-18 0 -30 12.5t-12 29.5q0 8 3 16h-1q5 11 11.5 20.5t13 20t11 23.5t4.5 32q0 17 -4.5 30.5t-11 24t-13 20.5t-10.5 21q-3 6 -3 15
q0 18 12 30.5t30 12.5q13 0 22 -8t17 -19zM460 -183q-50 45 -105.5 93.5t-103.5 89.5q-55 47 -111 93q-11 -1 -22 -1q-8 -1 -18 -1h-17q-26 0 -42.5 16t-16.5 39v246h1l-1 1q0 27 17 44.5t42 17.5h56q90 77 163 137q31 27 61.5 51.5t55 45t41 34.5t20.5 17q29 21 47 19
t28.5 -17.5t14.5 -38t4 -40.5v-789v-3q0 -18 -7 -39t-21 -33.5t-35.5 -10.5t-50.5 29z" />
    <glyph glyph-name="uniE602" unicode="&#xe602;" 
d="M157 718q0 9 8 13.5t16 -0.5l674 -423q8 -5 8 -13q-1 -8 -8 -13l-674 -423q-4 -2 -8 -2t-8 2q-2 1 -4 3t-3 4.5t-1 5.5v846z" />
    <glyph glyph-name="uniE603" unicode="&#xe603;" 
d="M352 287.5q0 -66.5 47 -113t113.5 -46.5t113 46.5t46.5 113t-46.5 113.5t-113 47t-113.5 -47t-47 -113.5z" />
    <glyph glyph-name="uniE604" unicode="&#xe604;" 
d="M358 364h-153l28 148h-141l-80 -424h140l33 171h153l-32 -171h141l80 424h-141zM1011 384q-4 38 -23 68q-9 14 -22.5 25.5t-30.5 19t-40.5 11.5t-54.5 4h-204l-78 -424h204q37 0 84 11q9 3 17.5 6t17 7t17 9.5t16.5 11.5q34 25 57 63q11 19 20 45t16 60q4 22 5 42.5
t-1 40.5zM868 299q-5 -26 -11 -44t-13 -29.5t-15.5 -19.5t-18.5 -13q-20 -9 -63 -9h-34l43 232h34q54 0 72 -25t6 -92z" />
    <glyph glyph-name="uniE605" unicode="&#xe605;" 
d="M428 400q0 -2 -0.5 -4t-1.5 -4t-3 -3q-4 -5 -11 -5h-305q-4 0 -5 4l1 5l102 101l-137 136q-1 2 -2 3.5t-1.5 3.5t-0.5 4q0 7 4 11l92 91q5 5 11.5 5t10.5 -5l137 -135l99 98q3 3 6 1.5t3 -4.5zM596 400q0 -7 4.5 -11.5t11.5 -4.5h305q4 0 5 4l-1 5l-102 101l137 136
q2 2 3 5t1 6q-1 7 -4 11l-92 91q-5 5 -11 5q-3 0 -6 -1t-5 -4l-137 -135l-99 98q-3 3 -6 1q-1 0 -2 -1.5t-1 -3.5zM428 200q0 2 -0.5 4t-1.5 4t-2.5 3.5t-3.5 2.5t-4 1.5t-4 0.5h-305q-4 0 -5 -4q-1 -1 -0.5 -2.5t1.5 -2.5l102 -101l-137 -136q-4 -5 -4 -11.5t4 -10.5
l92 -91q5 -5 11.5 -5t10.5 5l137 135l99 -98q3 -3 6 -1t3 5zM596 200q0 7 5 11q2 2 5 3.5t6 1.5h305q4 0 5 -4q1 -1 0.5 -2.5t-1.5 -2.5l-102 -101l137 -136q2 -2 3 -5t1 -6q0 -7 -4 -11l-92 -91q-5 -5 -11 -5q-2 0 -4 0.5t-4 1.5t-3 3l-137 135l-99 -98q-3 -3 -6 -1t-3 5z
" />
    <glyph glyph-name="uniE606" unicode="&#xe606;" 
d="M951 -4l-393 628q-16 25 -47 25q-14 0 -27 -7t-20 -18l-393 -628q-17 -27 0 -53q16 -25 47 -25h786q10 0 18.5 3t16 8.5t12.5 13.5q17 26 0 53zM561 18q0 -9 -5 -15.5t-13 -6.5h-62q-8 0 -13 6q-1 1 -2 2.5t-1.5 3.5t-0.5 4l-2 2v4v37q0 10 5.5 16.5t13.5 6.5h62
q8 0 13 -7q3 -3 4 -7t1 -9v-37zM556 141q-5 -5 -13 -5l-62 1h-3q-2 0 -4 0.5t-3.5 1.5t-2.5 2q-5 5 -5 11l-1 105v166q0 6 5.5 10.5t12.5 4.5h63q4 0 7 -1t5.5 -3.5t4 -5t1.5 -5.5v-165v-107q0 -2 -0.5 -3.5t-1.5 -3.5t-3 -3zM556 141z" />
    <glyph glyph-name="uniE607" unicode="&#xe607;" 
d="M909 -52q5 -39 -35 -37l-209 24q-25 2 -32 13.5t8 25.5q9 8 22.5 22.5t23.5 23.5q9 10 5.5 18.5t-13.5 19.5q-24 22 -43.5 40.5t-43.5 42.5q-5 5 -10 10.5t-7.5 12.5t-0.5 15q0 2 1 4t2.5 4.5t3 4.5t4.5 4q2 3 4.5 5t4 4t2.5 3l4 4l7 6q4 4 10 11q17 16 31.5 13.5
t31.5 -19t35 -33.5t40 -39q16 -14 27.5 -20t22.5 5q8 7 19 18q4 3 7.5 6t6.5 6l6 6q15 14 26.5 11t13.5 -25zM118 651q-3 21 5 29.5t29 6.5l209 -23q26 -2 32 -13.5t-8 -25.5q-9 -8 -21 -21.5t-22 -22.5q-10 -10 -6.5 -18.5t14.5 -18.5q5 -6 10.5 -11t10.5 -9.5t9.5 -9
t9.5 -8.5l19 -19l22 -21q2 -2 4.5 -5t5 -6.5t4 -7t2.5 -6.5q2 -8 0 -16q-1 -3 -2.5 -6t-3.5 -5.5t-5 -5.5l-9 -9l-3 -3l-4 -4q-3 -3 -7 -6l-9 -10q-17 -17 -29.5 -13t-29.5 21t-32.5 31.5t-37.5 35.5q-15 15 -27 21t-23 -5q-8 -8 -21.5 -20t-22.5 -21q-14 -14 -25 -10.5
t-14 25.5zM872 688q22 3 30.5 -5t7.5 -29l-24 -204q-3 -24 -14.5 -31t-25.5 8q-9 9 -22.5 21t-22.5 21q-10 9 -18.5 6t-19.5 -14q-23 -22 -40.5 -40.5t-41.5 -41.5q-5 -5 -12 -9q-2 -2 -5 -3l-4 -2l-6 -2q-7 -2 -16 0q-9 4 -17 12q-5 5 -9 8l-4 3l-3 4l-7 7q-5 4 -10 10
q-17 16 -13.5 28.5t21.5 29.5l32 33q16 17 38 38q17 15 22.5 26.5t-5.5 21.5q-8 8 -20 21t-20 21q-15 14 -11.5 25t25.5 13zM152 -84q-22 -1 -30.5 7t-7.5 27l24 205q3 25 14.5 31t25.5 -8q9 -8 23.5 -21.5t24.5 -22.5q10 -10 17 -8.5t17 11.5q11 11 21 22l10 10l10 10
q2 2 4.5 4t4.5 4l4 4q2 2 4 4.5t4 4.5q11 10 23 22q5 5 11 10t13 7.5t15 0.5t18 -11q2 -3 4.5 -5t4.5 -4l2 -2q1 -1 2.5 -2t2.5 -2l7 -8l10 -9q17 -16 15 -30t-20 -31l-12 -12l-10 -10l-12 -12l-19 -19q-10 -10 -21 -20q-15 -15 -19 -24.5t7 -20.5l19 -19l19 -19
q15 -15 11 -25.5t-26 -13.5z" />
    <glyph glyph-name="uniE608" unicode="&#xe608;" 
d="M648 702h123v-753h-123v753zM253 702h123v-753h-123v753z" />
    <glyph glyph-name="uniE609" unicode="&#xe609;" 
d="M510 731q-51 0 -100 -11.5t-92 -33t-80.5 -51t-67.5 -67.5t-51.5 -81t-33 -92t-11.5 -99q0 -89 34.5 -169.5t93 -139t139 -93t169 -34.5t169 34.5t139 93t93 139t34.5 169t-34.5 169t-93 139t-139 93t-168.5 34.5zM509.5 -92q-78.5 0 -150.5 31t-123.5 82.5t-82.5 123.5
t-31 151q0 105 52 194t141.5 141t194.5 52t194 -52t141 -141t52 -194q0 -79 -30.5 -151t-82.5 -123.5t-124 -82.5t-150.5 -31zM510 288zM236 288q0 75 36.5 138t99.5 99.5t138 36.5q113 0 193.5 -80t80.5 -193.5t-80.5 -194t-193.5 -80.5q-117 0 -198 85q-76 80 -76 189z
" />
    <glyph glyph-name="uniE60A" unicode="&#xe60a;" 
d="M513 803q-103 0 -196 -40t-160.5 -107t-107 -160.5t-39.5 -195.5t39.5 -195.5t107 -160.5t160.5 -107t195.5 -40t195.5 40t160.5 107t107 160.5t39.5 195.5q0 186 -120 327q-115 134 -289 167q-46 9 -93 9zM513 -131q-88 0 -168 34t-137.5 92t-91.5 137.5t-34 167.5
q0 117 57.5 216.5t157 157t216 57.5t216 -57.5t157.5 -157t58 -216.5q0 -165 -111 -288q-108 -119 -265 -140q-28 -3 -55 -3zM421 69q-5 0 -8 2q-3 1 -4.5 2.5t-3 3.5t-2 4.5t-0.5 5.5v410q0 11 9 16q5 3 10 2.5t9 -3.5l287 -200q8 -5 8 -14q0 -5 -2 -8.5t-5 -6.5l-288 -211
z" />
    <glyph glyph-name="uniE60B" unicode="&#xe60b;" 
d="M614 658q0 -34 -17 -63.5t-46.5 -47t-64.5 -17.5q-53 0 -90.5 37.5t-37.5 90.5t37.5 90.5t90.5 37.5t90.5 -37.5t37.5 -90.5zM758 431q48 0 81 33q22 23 30 52.5t0 59t-30 51.5q-33 34 -81 34q-9 0 -17.5 -1.5t-17.5 -4t-17 -6.5t-15.5 -9.5t-13.5 -12.5q-34 -33 -34 -81
t34 -82q16 -16 37 -24.5t44 -8.5zM870.5 377q-42.5 0 -72.5 -30t-30 -72.5t30 -72.5t72 -30q28 0 51.5 13.5t37.5 37.5t14 51q0 43 -30 73t-72.5 30zM758 93q-12 0 -23 -3t-21.5 -9t-18.5 -15q-27 -26 -27 -63t27 -63q8 -9 18.5 -15t21.5 -9t23 -3q37 0 63 27q27 26 27 63
t-27 63q-12 13 -29 20t-34 7zM486.5 -33q-31.5 0 -54 -22.5t-22.5 -54t22.5 -54t54 -22.5t54 22.5t22.5 54t-22.5 54t-54 22.5zM215 67q-27 0 -45.5 -19t-18.5 -45.5t18.5 -45t45 -18.5t45.5 18.5t19 45t-19 45.5q-4 5 -9.5 8.5t-11.5 5.5t-12 3.5t-12 1.5zM102 326
q-21 0 -36 -15t-15 -36.5t15 -36.5t36 -15q11 0 20.5 4t16.5 11t11 16.5t4 19.5q0 14 -7 26t-19 19t-26 7zM215 508h5q1 1 2 1q13 2 20 10q11 11 11 27t-11 27q-6 6 -13 8.5t-14 2.5q-16 0 -27 -11q-6 -5 -9 -12.5t-3 -14.5t3 -14.5t9 -12.5q11 -11 27 -11z" />
    <glyph glyph-name="uniE60C" unicode="&#xe60c;" 
d="M836 300l-642 -374v748z" />
    <glyph glyph-name="uniE60D" unicode="&#xe60d;" 
d="M687 547h-364q-30 0 -51 -21t-21 -51v-364q0 -30 21 -51t51 -21h364q29 0 50.5 21t21.5 51v364q0 30 -21.5 51t-50.5 21zM740 128q0 -18 -9 -33.5t-24.5 -24.5t-33.5 -9h-336q-28 0 -47.5 19.5t-19.5 47.5v336q0 28 19.5 47.5t47.5 19.5h336q28 0 47.5 -19.5t19.5 -47.5
v-336zM514 391q-2 -5 -3.5 -9t-2.5 -8.5t-2 -10.5l-30 -139q-3 -16 -4 -29h-24q5 13 8 29l14 65h-117l-14 -65q-2 -10 -3 -16t-1 -13h-24q4 12 8 29l30 138q2 10 2.5 16t1.5 13h24q-2 -5 -3.5 -9t-2.5 -8.5t-2 -10.5l-12 -56h117l11 55q2 9 3 16t1 13h25zM549 362
q2 9 3 15.5t2 14.5h2t4 -0.5t4 -0.5h2h4h4h4h4h44q28 0 46 -11.5t24 -33t-1 -52.5q-5 -24 -16 -43.5t-28 -32.5q-28 -23 -67 -23h-44h-4h-4h-4h-4q-1 0 -2.5 -0.5t-3.5 -0.5h-3h-3q5 14 8 31zM587 213q31 0 52 18q13 11 22 27t13 36q9 41 -7 61q-13 18 -45 18h-50l-34 -160
h49z" />
    <glyph glyph-name="uniE60E" unicode="&#xe60e;" 
d="M146 703v-852l734 426zM183 632l612 -355l-612 -355v710z" />
    <glyph glyph-name="uniE60F" unicode="&#xe60f;" 
d="M611 387q2 -1 3 -2t2.5 -2t3.5 -1.5t4 -0.5h3h11h1l216 -1q9 0 15.5 6.5t6.5 16.5v15q-1 11 -8.5 17t-16.5 6h-143l259 258q5 6 7 13.5t0 15.5t-7 14q-5 4 -10.5 6t-11.5 2t-11.5 -2t-9.5 -6l-259 -259l1 147q0 9 -6.5 15.5t-15.5 6.5h-15q-10 0 -16.5 -5.5t-6.5 -14.5
l-1 -218h1l-1 -11q0 -11 5 -16zM417 189q-6 7 -15 6h-12v0l-217 1q-5 0 -9 -2t-7 -5t-5 -7t-2 -9v-15q2 -11 9 -17t17 -6h142l-258 -258q-9 -9 -9 -21.5t9 -21t21.5 -8.5t20.5 8l259 258l-1 -146q0 -9 6.5 -15.5t15.5 -6.5h16q10 0 16.5 5.5t6.5 14.5l1 218h-1l1 11
q0 11 -5 16zM709 135h143q6 0 11 2.5t9 8t5 12.5v15q0 10 -7 16.5t-16 6.5l-216 -1v0h-11q-5 0 -9 -1.5t-7 -4.5q-5 -5 -5 -15l1 -11q0 -1 -1 -1l1 -218q0 -5 2 -8.5t5 -6t7 -4t9 -1.5h15q9 0 15.5 6.5t6.5 15.5l-1 147l259 -258q4 -5 9.5 -7t11.5 -2t11.5 2t9.5 7
q9 8 9 20.5t-9 21.5zM422 414l-1 218q0 6 -3 10.5t-8 7t-11 2.5h-17q-6 0 -11 -3t-7.5 -8.5t-2.5 -10.5l1 -146l-259 258q-4 3 -8.5 5t-9 3t-9 0t-9 -3t-7.5 -5q-9 -9 -9 -21.5t9 -21.5l258 -258h-142q-10 0 -17 -6t-8 -17v-15q0 -6 3 -11.5t8 -8.5t11 -3l217 1h1h11
q9 -1 15 6q5 5 5 15l-1 11l1 1v0z" />
    <glyph glyph-name="uniE610" unicode="&#xe610;" 
d="M256 619q0 13 9.5 22.5t22.5 9.5t22.5 -9.5t9.5 -22.5v-639q0 -13 -9.5 -22.5t-22.5 -9.5t-22.5 9.5t-9.5 22.5v639zM704 620q0 13 9.5 22.5t22.5 9.5t22.5 -9.5t9.5 -22.5v-639q0 -13 -9.5 -22.5t-22.5 -9.5t-22.5 9.5t-9.5 22.5v639z" />
    <glyph glyph-name="uniE612" unicode="&#xe612;" 
d="M964 128v-280h-280v61h177l-349 348l-349 -349l177 1v-61h-280v280h61v-177l348 349l-348 349v-177h-61v280h280v-61h-177l349 -348l349 348h-177v61h280v-280h-61v177l-348 -349l348 -349v177h61z" />
    <glyph glyph-name="uniE614" unicode="&#xe614;" 
d="M890 292q-12 77 -52 143t-103 111q-1 1 -2 1.5t-2 1.5l-2 2q-76 52 -166.5 64t-177 -19t-150.5 -100t-88 -158t-5.5 -178t76.5 -160q9 -11 22 -15.5t26.5 -1t22.5 13.5q13 13 13.5 31t-10.5 31q-37 46 -52.5 102t-8.5 113l1 5q15 104 95 173.5t187 69.5q30 0 59.5 -6.5
t55.5 -18t49.5 -28t43 -37.5t34.5 -45t25 -51.5t14 -57.5q3 -17 16.5 -29t30.5 -12q15 0 26.5 7.5t17.5 20.5t4 27z" />
    <glyph glyph-name="uniE617" unicode="&#xe617;" 
d="M536 -136h-8l-302 205h-63q-34 0 -59 24q-26 25 -26 60v262q0 35 26 60q8 8 17.5 13.5t20 8t21.5 2.5h62l302 234h9q23 0 42.5 -11.5t30.5 -31t11 -41.5v-701q0 -34 -24.5 -59t-59.5 -25zM163 448q-14 0 -24 -9.5t-10 -23.5v-262q0 -14 10 -23.5t24 -9.5h78l302 -204
q11 3 18.5 12t7.5 20v701q0 11 -7 20t-18 12l-302 -233h-79zM785 0q-14 0 -21 11q-6 9 -4 19t10 16q42 29 71.5 68.5t45.5 86t16 96.5q0 51 -16.5 98.5t-47 87t-72.5 67.5q-9 6 -11 16.5t3 19.5q3 4 7.5 7t9 4t10 0t9.5 -4q49 -33 85 -79.5t55 -102t19 -114.5
q0 -88 -41 -165.5t-114 -127.5q-7 -4 -14 -4zM766 172q-14 0 -21 11q-6 9 -4 19t10 16q42 29 42 80q0 52 -43 80q-6 4 -9 10t-2.5 13t4.5 13q6 9 16.5 11t19.5 -4q31 -21 48.5 -53.5t17.5 -69.5t-17 -69t-48 -53q-6 -4 -14 -4z" />
    <glyph glyph-name="uniE618" unicode="&#xe618;" 
d="M536 733h-9l-302 -234h-62q-34 0 -59 -24q-3 -3 -6 -6.5t-5.5 -6.5t-4.5 -7t-3.5 -7.5t-3 -7.5t-2 -8t-1 -8.5t-0.5 -8.5v-262q0 -35 26 -60q8 -8 17.5 -13.5t20 -8t21.5 -2.5h63l302 -205h8q35 0 59.5 25t24.5 59v701q0 34 -24.5 59t-59.5 25zM569 -52q0 -11 -7.5 -20
t-18.5 -12l-302 204h-78q-14 0 -24 9.5t-10 23.5v262q0 14 10 23.5t24 9.5h79l302 233q11 -3 18 -12t7 -20v-701zM945 102l-99 199l95 192q5 9 1.5 19t-13.5 15q-2 1 -4 1.5t-4.5 1t-4.5 0.5l-4 -2h-4q-2 -1 -4 -2.5t-3.5 -3t-3 -3.5t-2.5 -4l-77 -156l-78 156
q-4 10 -14 13.5t-19.5 -1.5t-13 -15t0.5 -19l95 -192l-99 -199q-4 -10 -1 -20t13 -14q5 -3 11 -3q16 0 23 14l82 165l81 -165q7 -14 23 -14q6 0 11 3q10 4 13.5 14t-1.5 20z" />
  </font>
</defs>
</svg>
